Batwoman S01E09 Crisis On Infinite Earths Part 2 WEB-DL 1080p 10B...

seeders: 8
leechers: 2
updated:
Added by imalek999 in Other


ᕦ( ▨̅ ͜▨̅ )ᕥ SPECIAL DEAL - OFFER ᕦ( ▨̅ ͜▨̅ )ᕥ
strongly advises you to use Nord while downloading torrents.
Nord is the safest on the market, and the fastest as well.
No IP Log is saved using Nord, avoid other providers and choose the safest one.
Click here and buy Nord it's on rebates today!
We were able to verify your IP: 3.234.245.121, country: United States.
If we can do that, others can too, protect your privacy with Nord.
is trying the best for you!
ᕦ( ▨̅ ͜▨̅ )ᕥ SPECIAL DEAL - OFFER ᕦ( ▨̅ ͜▨̅ )ᕥ


Description

 
Batwoman S05E09 Crisis On Infinite Earths Part 2 WEB-DL 1080p 10Bit HEVC-Thor  
 
Plot Summary  
Kate Kane, armed with a passion for social justice and a flair for speaking her mind, soars onto the streets of Gotham as Batwoman, an out lesbian and highly trained street fighter primed to snuff out the failing city's criminal resurgence. But don't call her a hero yet. In a city desperate for a savior, Kate must overcome her own demons before embracing the call to be Gotham's symbol of hope.
Trailer  
https://www.youtube.com/watch?v=grDBkZw-85s
Code:General
Unique ID                                : 40594150996189679894197047661696397871 (0x1E8A262B397A472C6F3FB45DEDD4322F)
Complete name                            : Batwoman S01E09 Crisis On Infinite Earths Part 2 WEB-DL 1080p 10Bit HEVC-Thor
Format                                   : Matroska
Format version                           : Version 4 / Version 2
Duration                                 : 42 min 25 s
Encoded date                             : UTC 2019-12-14 13:46:21
Writing application                      : mkvmerge v41.0.0 ('Smarra') 64-bit
Writing library                          : libebml v1.3.9 + libmatroska v1.5.2 / Lavf58.29.100

Video
ID                                       : 1
Format                                   : HEVC
Format/Info                              : High Efficiency Video Coding
Format profile                           : Main [email protected]@Main
Codec ID                                 : V_MPEGH/ISO/HEVC
Duration                                 : 42 min 24 s
Bit rate                                 : 1 529 kb/s
Width                                    : 1 920 pixels
Height                                   : 1 080 pixels
Display aspect ratio                     : 16:9
Frame rate mode                          : Constant
Frame rate                               : 23.976 (24000/1001) FPS
Color space                              : YUV
Chroma subsampling                       : 4:2:0
Bit depth                                : 10 bits
Bits/(Pixel*Frame)                       : 0.031
Stream size                              : 464 MiB
Writing library                          : x265 3.2.1+1-b5c86a64bbbe:[Windows][GCC 8.3.0][64 bit] 10bit

Default                                  : Yes
Forced                                   : No
Color range                              : Limited
Color primaries                          : BT.709
Transfer characteristics                 : BT.709
Matrix coefficients                      : BT.709

Audio
ID                                       : 2
Format                                   : AAC
Format/Info                              : Advanced Audio Codec
Format profile                           : LC
Codec ID                                 : A_AAC
Duration                                 : 42 min 24 s
Bit rate                                 : 160 kb/s
Channel(s)                               : 2 channels
Channel positions                        : Front: L R
Sampling rate                            : 48.0 kHz
Frame rate                               : 46.875 FPS (1024 spf)
Compression mode                         : Lossy
Delay relative to video                  : -21 ms
Stream size                              : 48.6 MiB
Title                                    : Stereo
Language                                 : English
Default                                  : Yes
Forced                                   : No

Text
ID                                       : 3
Format                                   : UTF-8
Codec ID                                 : S_TEXT/UTF8
Codec ID/Info                            : UTF-8 Plain Text
Duration                                 : 42 min 18 s
Bit rate                                 : 70 b/s
Count of elements                        : 755
Stream size                              : 21.9 KiB
Default                                  : Yes
Forced                                   : No 
SCREENSHOTS  
 
 
 
 
 
 
 

Sharing Widget


Download torrent
Size: 513.2 MB
seeders:8
leechers:2
Batwoman S01E09 Crisis On Infinite Earths Part 2 WEB-DL 1080p 10B... - (538129203 Bytes)



To share this torrent use the code below and insert it into comments, status messages, forum posts or your signature.

Torrent: Batwoman S01E09 Crisis On Infinite Earths Part 2 WEB-DL 1080p 10B...

Trackers

tracker name
udp://p4p.arenabg.com:1337/announce
udp://open.demonii.si:1337/announce
udp://tracker.leechers-paradise.org:6969/announce
udp://tracker.opentrackr.org:1337/announce
udp://tracker.nyaa.uk:6969/announce
udp://tracker.coppersurfer.tk:6969/announce
udp://9.rarbg.com:2710/announce
udp://tracker.internetwarriors.net:1337
udp://tracker.torrent.eu.org:451/announce
udp://tracker.opentracker.org:1337/announce
udp://tracker.zer0day.to:137/announnce
udp://eddie4.nl:6969/announce
https://tracker.vectahosting.eu:2053/announce
udp://tracker.zer0day.to:1337/announce
udp://tracker.leechers-paradise.org:6969/announce
udp://coppersurfer.tk:6969/announce
µTorrent compatible trackers list

Locations

name
KickassTorrents
Torrent hash: 005FA8B60430B400180D5EDFDA10CBD452AFCE72

ᕦ( ▨̅ ͜▨̅ )ᕥ SPECIAL DEAL - OFFER ᕦ( ▨̅ ͜▨̅ )ᕥ
strongly advises you to use Nord while downloading torrents.
Nord is the safest on the market, and the fastest as well.
No IP Log is saved using Nord, avoid other providers and choose the safest one.
Click here and buy Nord it's on rebates today!
We were able to verify your IP: 3.234.245.121, country: United States.
If we can do that, others can too, protect your privacy with Nord.
is trying the best for you!
ᕦ( ▨̅ ͜▨̅ )ᕥ SPECIAL DEAL - OFFER ᕦ( ▨̅ ͜▨̅ )ᕥ


All Comments

*comments box temporarily disabled*
Report a bug